#TITLE:kissy kissy;
#SUBTITLE:;
#ARTIST:Smile;
#TITLETRANSLIT:;
#SUBTITLETRANSLIT:;
#ARTISTTRANSLIT:;
#CREDIT:;
#BANNER:kissy kissy_logo.jpg;
#BACKGROUND:kissy kissy_bg.jpg;
#LYRICSPATH:;
#CDTITLE:Lan.png;
#MUSIC:kissy kissy.mp3;
#OFFSET:-0.020;
#SAMPLESTART:100.000;
#SAMPLELENGTH:12.000;
#SELECTABLE:YES;
#BPMS:0.000=138.000;
#STOPS:;
#BGCHANGES:0.000=kissy kissy_bg.avi=1.000=0=0=1,
99999=-nosongbg-=1.000=0=0=0 // don't automatically add -songbackground-
;
// cache tags:
#FIRSTBEAT:16.000;
#LASTBEAT:336.000;
#SONGFILENAME:Songs/Super Dancer Online/kissy kissy/kissy kissy.sm;
#HASMUSIC:1;
#HASBANNER:1;
#MUSICLENGTH:149.176;
// end cache tags

//---------------dance-single - sky----------------
#NOTES:
     dance-single:
     sky:
     Hard:
     10:
     1.000,1.000,1.000,0.054,0.409,758.000,346.000,8.000,0.000,48.000:
0000
0000
0000
0000
,
0000
0000
0000
0000
,
0000
0000
0000
0000
,
0000
0000
0000
0000
,
0100
0010
0001
0010
0100
1000
0100
0010
,
1000
0100
0010
0001
0010
0100
1000
0100
,
0001
0010
1000
0100
0010
0001
0010
0100
,
1000
0100
0010
0001
0101
0000
0000
0000
,
0010
0100
1000
0100
0010
0001
0010
0100
,
0001
0010
0100
1000
0100
0010
0001
0010
,
1000
0010
0001
0010
0100
1000
0100
0010
,
0001
0010
0100
1000
1010
0000
0100
0000
,
1100
0000
0001
0010
1100
0000
0001
0000
1100
0000
0010
0000
1100
0000
0011
0000
,
0001
0000
0001
0010
1100
0000
1100
0010
0001
0000
0011
0000
1000
0100
0010
0001
,
0010
0000
1000
0100
0011
0000
1000
0000
0011
0000
0100
0000
0011
0000
1100
0000
,
1001
0000
0100
1000
0011
0000
0010
0100
1010
0000
1010
0000
1010
0000
0010
0000
,
1100
0000
0001
0010
1100
0000
0001
0000
1100
0000
0010
0000
1100
0000
0011
0000
,
0001
0000
0001
0010
1100
0000
1100
0010
0001
0000
0011
0000
1000
0100
0010
0001
,
0110
0000
0001
0010
1100
0000
0001
0000
1100
0000
0010
0000
1100
0000
0011
0000
,
0100
0000
1010
0101
1010
0101
1010
0101
1010
0000
0100
0000
0011
0000
0100
0000
,
0101
0010
0101
0010
0101
0010
0101
0010
,
1010
0100
1010
0100
1010
0100
1010
0100
,
1100
0010
1100
0010
1100
0010
1100
0010
,
0011
0100
0011
0100
0011
0100
0011
0100
,
1010
0001
1010
0001
1010
0001
1010
0001
,
0101
1000
0101
1000
0101
1000
0101
1000
,
0011
0100
0011
0100
0011
0100
0011
0100
,
1100
0000
0010
0000
1100
0000
0100
0010
0001
0000
1100
0000
0001
0010
0100
1000
,
0110
1110
0011
0111
1100
0111
0110
1110
,
2100
0010
0001
0010
3102
1000
0100
0010
,
0113
1110
0011
0111
1100
0111
0110
1110
,
0100
0000
0010
0000
0001
0000
0010
0100
1000
0000
0100
0000
0010
0000
0001
0000
,
0110
1110
0011
0111
1100
0111
0110
1110
,
0110
1110
1100
0111
0011
0111
1100
1110
,
0110
1110
0011
0111
1100
0111
0110
1110
,
1010
0000
0000
0000
0101
0000
0000
0000
1010
0000
0000
0000
0101
0000
0000
0000
1000
0001
1000
0001
1000
0001
1000
0001
1000
0001
1000
0001
1000
0001
1000
0001
,
1100
0000
0001
0010
1100
0000
0001
0000
1100
0000
0010
0000
1100
0000
0011
0000
,
0001
0000
0001
0010
1100
0000
1100
0010
0001
0000
0011
0000
1000
0100
0010
0001
,
0010
0000
1000
0100
0011
0000
1000
0000
0011
0000
0100
0000
0011
0000
1100
0000
,
1001
0000
0100
1000
0011
0000
0010
0000
1000
0000
0100
0000
1010
0000
0010
0000
,
1100
0000
0001
0010
1100
0000
0001
0000
1100
0000
0010
0000
1100
0000
0011
0000
,
0001
0000
0001
0010
1100
0000
1100
0010
0001
0000
0011
0000
1000
0100
0010
0001
,
0110
0000
0001
0010
1100
0000
0001
0000
1100
0000
0010
0000
1100
0000
0011
0000
,
0100
0000
1100
0011
1100
0011
1100
0011
1100
0000
0100
0000
0011
0000
0100
0000
,
0110
1010
0011
0101
1100
0101
0110
1010
,
0110
1010
1100
0101
0011
0101
1100
1010
,
0110
1010
0011
0101
1100
0101
0110
1010
,
1010
0000
0101
0000
1010
0000
0101
0010
0100
0000
0010
0000
0001
0000
1000
0000
,
0110
1010
0011
0101
1100
0101
0110
1010
,
0110
1010
1100
0101
0011
0101
1100
1010
,
0110
1010
0011
0101
1100
0101
0110
1010
,
1010
0000
0000
0000
0101
0000
0000
0000
1010
0000
0000
0000
0101
0000
0000
0000
0100
0001
0100
0001
0100
0001
0100
0001
0100
0001
0100
0001
0100
0001
0100
0001
,
1100
0100
0110
0010
0011
0010
0110
0100
,
1100
0100
0011
0010
0011
0010
0110
0100
,
1100
0100
0110
0010
0011
0010
0110
0100
,
1100
0000
0100
0000
0010
0000
1100
0001
0010
0000
0110
0000
0110
0000
0010
0000
,
1010
0100
0101
0010
1010
0100
0101
0001
,
1010
1000
0101
0001
1010
1000
0101
0010
,
1010
0100
0101
0010
1010
0100
0101
1010
,
0011
0000
0000
0000
1100
0000
0000
0000
0011
0000
0000
0000
1100
0000
0000
0000
1000
0010
1000
0010
1000
0010
1000
0010
1000
0010
1000
0010
1000
0010
1000
0010
,
2100
0000
0001
0000
0100
0000
0001
0000
0100
0100
0010
0000
0001
0000
0010
0000
,
3012
0000
1000
0000
0010
0000
1000
0000
0010
0010
0100
0000
1000
0000
0100
0000
,
0213
0000
1000
0000
0010
0000
1000
0000
0001
0001
0010
0000
1000
0000
0010
0000
,
1320
0000
1000
0000
1000
0000
0100
0001
0100
0000
1000
0000
1000
0100
0001
0100
,
1130
0000
0001
0010
1100
0000
0001
0000
1100
0000
0010
0000
1100
0000
0011
0000
,
0001
0000
0001
0010
1100
0000
1100
0010
0001
0000
0011
0000
1000
0100
0010
0001
,
0010
0000
1000
0100
0011
0000
1000
0000
0011
0000
0100
0000
0011
0000
1100
0000
,
1001
0000
0000
0000
0101
0000
1010
0000
0101
0000
1010
0000
0101
0000
1010
0000
0101
0000
0000
0000
0100
0000
0000
0000
0001
1000
0001
1000
0001
1000
0001
1000
,
0110
1110
0011
0111
1100
0111
0110
1110
,
2100
0010
0001
0010
3102
1000
0100
0010
,
0113
1110
0011
0111
1100
0111
0110
1110
,
0100
0000
0010
0000
0001
0000
0010
0100
1000
0000
0100
0000
0010
0000
0001
0000
,
0110
1110
0011
0111
1100
0111
0110
1110
,
0110
1110
1100
0111
0011
0111
1100
1110
,
0110
1110
0011
0111
1100
0111
0110
1110
,
1010
0000
0000
0000
0101
0000
0000
0000
1010
0000
0000
0000
0101
0000
0000
0000
0100
0001
0100
0001
0100
0001
0100
0001
0100
0001
0100
0001
0100
0001
0100
0001
,
1100
0100
0110
0010
0011
0010
0110
0100
,
1100
0100
0011
0010
0011
0010
0110
0100
,
1100
0100
0110
0010
0011
0010
0110
0100
,
1100
0000
0100
0000
0010
0000
1100
0010
0001
0000
0110
0000
0110
0000
0010
0000
,
1010
0100
0101
0010
1010
0100
0101
0001
,
1010
1000
0101
0001
1010
1000
0101
0010
,
1010
0100
0101
0010
1010
0100
0101
1010
,
0101
0000
0000
0000
1010
0000
0000
0000
0101
0000
0000
0000
1010
0000
0000
0000
0100
0010
0100
0010
0100
0010
0100
0010
0100
0010
0100
0010
0100
0010
0100
0010
,
1001
0000
0000
0000
;
